#TITLE:SOMEONE ELSE;
#SUBTITLE:- ワーキング -;
#ARTIST:阿澄佳奈, 藤田咲, 喜多村英梨;
#TITLETRANSLIT:SOMEONE ELSE;
#SUBTITLETRANSLIT:- Working!! -;
#ARTISTTRANSLIT:Kana Asumi, Saki Fujita, Eri Kitamura;
#CREDIT:QED;
#BANNER:SOMEONE ELSE-bn.png;
#BACKGROUND:SOMEONE ELSE-bg1.jpg;
#LYRICSPATH:SOMEONE ELSE.lrc;
#CDTITLE:QED.png;
#MUSIC:SOMEONE ELSE.mp3;
#OFFSET:-0.090;
#SAMPLESTART:49.647;
#SAMPLELENGTH:21.319;
#SELECTABLE:YES;
#BPMS:0.000=233.000;
#STOPS:;
#BGCHANGES:-0.235=SOMEONE ELSE-bg.avi=1.000=1=1=0,
338.000=SOMEONE ELSE-bg2.jpg=1.000=1=0=1,
99999=-nosongbg-=1.000=0=0=0 // don't automatically add -songbackground-
;
// cache tags:
#FIRSTBEAT:1.000;
#LASTBEAT:341.000;
#SONGFILENAME:songs/Pack anime 1/[QED] SOMEONE ELSE [Working!!]/SOMEONE ELSE.sm;
#HASMUSIC:1;
#HASBANNER:1;
#MUSICLENGTH:89.993;
// end cache tags

//---------------dance-single - ----------------
#NOTES:
     dance-single:
     :
     Challenge:
     10:
     0.962,0.995,1.000,0.444,0.000,431.000,135.000,40.000,0.000,31.000:
0000
0001
1000
0110
,
0110
1000
0100
0011
,
0011
0001
0100
1010
,
1010
0000
0100
0000
0010
0001
0000
0001
,
0010
0001
1000
0011
,
0011
0100
0010
1100
,
1100
0010
1000
0011
,
0011
0000
0100
0000
0010
1000
0000
0100
,
0010
1000
0011
1000
,
0101
1000
0011
0101
,
1001
0010
1001
0010
,
1100
0010
1001
1100
,
0110
0001
0110
0001
,
1010
0001
0110
1010
,
0110
0000
2000
3000
0002
0003
0200
0300
,
0020
0030
0001
0000
0100
0001
0000
0100
,
0001
0100
1001
0100
0010
0000
0001
0010
,
0100
0000
0010
0001
0100
1000
0000
0010
,
1000
0100
0011
1000
0100
0000
0100
0010
,
1000
0000
0010
0100
0010
0100
0000
0001
,
0010
0100
1010
0001
0100
0000
0001
1000
,
0100
0000
0010
0001
0100
0010
0000
1000
,
0001
0100
1010
0100
0001
0000
0010
1000
,
0100
0000
1000
0010
0100
0010
0000
0001
,
0100
0010
1001
0010
0100
0010
1001
0100
,
0010
0100
1000
0100
0000
0011
0000
1000
,
0001
0010
1100
0001
0010
0001
1100
0010
,
0001
0010
0100
0010
0000
1001
0000
0100
,
1000
0100
0011
0000
0110
0000
1100
0000
,
1001
0000
0100
0011
0000
0110
0000
0001
,
0010
0100
0010
0010
0000
0100
0000
1000
,
0100
0000
0001
0001
0000
1000
0000
0001
,
0010
0120
0000
1000
,
0000
0001
0000
1030
,
0100
0010
1002
0000
0000
0000
0210
0000
,
0000
2013
0000
0312
,
0000
3110
1020
0103
,
0000
1000
0030
0100
,
0001
1000
0201
0000
0000
0000
2010
0000
,
0000
0311
0101
3110
,
1001
0210
0010
0010
,
0310
2010
0010
0010
,
3010
0001
0210
0000
0010
0000
2010
0000
,
0310
0012
0010
3210
,
0010
1013
0012
0310
,
0010
2010
0010
0013
,
0011
0100
3012
0000
0010
0000
2010
0000
,
0010
0000
3113
0000
0000
0000
0010
0100
,
0010
0100
1001
0000
0100
0010
0001
0000
,
1000
0100
0010
0000
0100
0010
0000
0001
,
0010
0100
1010
0000
0010
1000
0000
0001
,
0100
0010
0100
0010
0001
0000
0100
1000
,
0100
0010
1001
0000
1001
0000
0110
0000
,
0100
1000
0011
0000
0001
1100
0000
0100
,
0010
0100
1001
0000
1000
0100
0010
0000
,
0100
0010
0001
0000
0010
0001
0000
0100
,
0001
1000
0110
0000
0010
0001
0010
0000
,
0100
0010
0001
0000
0001
1000
0000
1000
,
0100
0010
1100
0000
0001
0100
0001
0000
,
0010
0100
2010
3000
0102
0003
0120
0030
,
1002
0003
0120
0030
0100
1000
0010
0000
,
0001
0010
1100
0000
0011
0000
0110
0000
,
1010
0000
0101
0000
1000
0001
1000
0000
,
0001
0100
1010
0000
0100
0011
0000
0100
,
1000
0100
1001
0000
0001
0010
1100
0000
,
1000
0100
0011
0000
0001
1010
0000
1000
,
0100
0010
1001
0000
0010
1000
0110
0000
,
1000
0100
0010
0001
0110
0000
0001
0010
,
0100
0010
1001
0000
0100
0010
0101
0000
,
0001
0010
1100
0000
0100
0011
0000
0100
,
1000
0100
0011
0000
0100
1000
0110
0000
,
0001
0100
1010
0000
0001
0110
0000
0001
,
1000
0100
1001
0000
0001
1000
0110
0000
,
1000
0010
0101
0000
0010
0101
0000
1000
,
0001
0100
1001
0000
0010
0100
0011
0000
,
0100
0010
1200
0300
1002
0003
0120
0030
,
2100
3000
0012
0003
0100
0010
0101
0000
,
0010
0100
1010
0000
0100
0011
0000
0100
,
1000
0100
0022
0000
0000
0033
1001
0000
,
0101
2010
3210
1302
,
1023
0000
0131
0000
1000
0010
0001
0000
,
1000
0010
0001
0000
0001
0010
0100
1000
,
0100
0011
0101
0110
,
1100
0000
1001
0000
0100
1001
0000
0010
,
0100
1000
0022
0000
0000
0000
0000
0000
,
0000
0033
0000
0000
;

//---------------dance-single - ----------------
#NOTES:
     dance-single:
     :
     Hard:
     8:
     0.694,0.805,0.400,0.467,0.000,359.000,36.000,42.000,0.000,0.000:
0000
0001
1000
0001
,
0001
0100
0010
0100
,
0100
0001
1000
0010
,
0010
0000
0100
0000
1000
0001
0000
1000
,
0001
0010
1000
0100
,
0100
0001
1000
0010
,
0010
0001
0100
1000
,
1000
0000
0010
0000
0001
0100
0000
0001
,
0100
0010
0001
1000
,
0001
0100
0001
0001
,
0001
0010
0100
0001
,
0100
1000
0100
0100
,
0100
0010
1000
0001
,
1000
0100
1000
1000
,
1000
0100
0010
0001
,
0010
0000
0001
0000
1000
0001
0000
1000
,
0001
0010
0100
0010
,
0100
0000
1000
0100
0000
0001
0000
1000
,
0001
0010
1000
0000
0100
0000
0010
0000
,
0100
0000
0001
0010
0000
0100
0000
1000
,
0100
0010
0001
0000
0010
0000
0001
0000
,
0100
0000
0010
1000
0000
0100
0000
0001
,
0010
0100
1000
0000
0010
0000
0100
0000
,
0010
0000
0001
0010
0000
0001
0000
0100
,
0010
0100
0001
0000
1000
0100
0010
0000
,
0001
0010
0100
0010
0000
0001
0000
1000
,
0010
1000
0001
0000
0100
1000
0100
0000
,
0010
0100
1000
0100
0000
0001
0000
0100
,
0010
0100
0010
0000
1000
0000
0001
0000
,
0100
0000
0001
0010
0000
0001
0000
0100
,
0010
1000
0001
0100
0000
0001
0000
1000
,
0010
0000
0001
0010
0000
0100
0000
1000
,
0100
0002
0000
1000
,
0000
0100
0000
1003
,
0000
0020
0000
0230
,
0000
0302
0000
2003
,
0000
3100
0010
0002
,
0000
2003
0000
3010
,
0100
0002
0000
2003
,
0000
3010
0100
0010
,
0100
0002
0010
0010
,
0013
1000
0010
0010
,
0010
0002
0013
0200
,
0310
2000
3010
0200
,
0310
1000
0002
0010
,
0013
1000
0010
0010
,
0010
0002
0013
2000
,
3010
0101
0000
0010
,
0100
1001
1001
0100
,
0100
0000
0001
0000
0100
1000
0000
1000
,
0100
0011
0011
1000
,
1000
0200
0320
0032
,
0023
1030
0001
1000
,
0001
0000
0010
0000
0100
0010
0000
0010
,
0100
1100
0001
0010
,
0100
0000
1001
0000
0001
1000
0000
0001
,
1000
1001
1001
0010
,
0010
0000
0001
0000
0100
1000
0000
1000
,
0010
0101
0101
0010
,
0010
2000
3002
0203
,
2300
3010
0010
0100
,
0100
1000
0011
0101
,
1001
0100
0011
1000
,
0101
0000
0010
0000
1000
0100
0000
1000
,
0010
0101
0101
1000
,
1000
0000
0011
0000
0100
1000
0000
0010
,
0100
1001
1001
0100
,
0100
0020
2030
3002
,
0203
0310
1000
0010
,
1000
0000
0100
0000
0010
0001
0000
1000
,
0100
0011
0100
1000
,
0001
0000
0110
0000
1000
0100
0000
0010
,
0001
1100
1100
0001
,
0001
0000
0100
0000
0010
0100
0000
0001
,
0010
1001
1001
0100
,
0100
2000
3020
0032
,
0023
0031
0100
0001
,
0100
0000
1000
0000
0010
0001
0000
1000
,
0100
0010
2002
0000
3003
0000
2010
0000
,
3001
0200
0320
0032
,
2003
3100
1000
0100
,
1000
1010
0011
1001
,
0011
0100
0001
0010
,
0100
0000
1001
0000
0100
1001
0000
0010
,
0100
1000
0022
0000
0000
0000
0000
0000
,
0000
0033
0000
0000
;

//---------------dance-single - Copied from----------------
#NOTES:
     dance-single:
     Copied from:
     Medium:
     6:
     0.546,0.710,0.367,0.244,0.000,289.000,33.000,22.000,0.000,0.000:
0000
0001
0000
0001
,
0001
0100
0000
0100
,
0100
1000
0000
1000
,
1000
0000
0010
0000
0000
0100
0000
0000
,
0010
1000
0000
0001
,
0001
0100
0000
0010
,
0010
0001
0000
1000
,
1000
0000
0010
0000
0000
0001
0000
0000
,
0010
1000
0001
1000
,
0001
1000
0001
0001
,
0001
0100
0010
0100
,
0010
0100
0010
0010
,
0010
1000
0100
1000
,
0100
1000
0100
0100
,
0100
0001
0100
0001
,
0100
0000
0001
0000
0000
0001
0000
0000
,
0100
0001
0010
0001
,
0100
0000
1000
0000
0000
0010
0000
0000
,
0100
0001
1000
0001
,
1000
0000
0010
0000
0000
0100
0000
0000
,
0010
0001
0100
0010
,
1000
0000
0001
0000
0000
0100
0000
0000
,
0010
0001
0100
1000
,
0100
0000
0010
0000
0000
0100
0000
0000
,
0001
1000
0100
0010
,
0001
0010
0100
1001
,
0000
0001
0100
0010
,
1000
0001
0100
0011
,
0000
0100
0010
0001
,
0010
1000
0100
0011
,
0000
0001
0010
0001
,
0000
0100
0010
0100
,
0000
1001
0000
0001
,
0000
1000
0000
0001
,
0000
0110
0000
1010
,
0000
1100
0000
1010
,
0000
0101
0000
0010
,
0000
1000
0000
0100
,
0000
0011
0000
1100
,
0000
0001
0010
0100
,
1000
0110
0010
0010
,
0010
1000
0010
0010
,
0010
0001
0010
0001
,
0010
0100
0010
0100
,
0010
0001
0100
0010
,
0010
0010
0010
0010
,
0010
0011
0011
1010
,
1010
0220
0330
1000
,
0100
0001
0010
0001
,
0010
0000
0002
0000
0003
0200
0000
0300
,
1000
0001
0010
1000
,
0010
0100
0010
0001
,
0010
1100
0000
1100
,
0000
0110
0000
0110
,
0000
0001
0010
0100
,
1000
0100
0010
0001
,
0100
0001
1000
0001
,
1000
0000
0002
0000
0003
0020
0000
0030
,
0100
0001
1000
0001
,
0010
0200
0320
2030
,
3200
0301
0010
0001
,
0010
1000
0001
0001
,
0001
1000
0001
0100
,
1000
0010
0010
0001
,
0001
1000
0100
1000
,
0100
0000
0020
0000
0030
0200
0000
0300
,
0010
0001
0100
1000
,
0100
0010
0001
0100
,
0001
0110
0000
1010
,
0000
0011
0000
0110
,
0000
0001
0010
0100
,
1000
0100
0010
0001
,
0100
0010
1000
0010
,
1000
0000
0002
0000
0003
0200
0000
0300
,
1000
0001
0100
1000
,
0100
0020
2030
3002
,
0203
0310
1000
0001
,
0100
1000
0100
0010
,
0100
0002
0003
0200
,
0300
1000
0100
0001
,
0100
1000
0011
1000
,
0011
0100
0011
0011
,
0011
1000
1000
0100
,
0100
0000
1001
0000
0000
1001
0000
0000
,
0100
0022
0000
0000
,
0000
0033
0000
0000
;

//---------------dance-single - ----------------
#NOTES:
     dance-single:
     :
     Easy:
     4:
     0.379,0.426,0.000,0.278,0.000,214.000,0.000,25.000,0.000,0.000:
0000
0001
0000
0100
,
0000
0001
0000
1000
,
0000
0001
0000
0010
,
0000
0100
0000
0010
,
0000
0001
0000
1000
,
0000
0001
0000
0010
,
0000
0001
0000
0100
,
0000
1000
0000
0100
,
0000
1000
0000
1000
,
0000
0010
0010
0010
,
0010
0100
0000
0100
,
0000
0001
0001
0001
,
0001
1000
0000
1000
,
0000
0010
0010
0010
,
0010
0100
0000
0100
,
0000
0001
1000
0002
,
0003
0100
0000
0010
,
0000
1000
0100
0010
,
0000
0001
0000
1000
,
0000
0001
0010
0100
,
0000
0010
0000
0001
,
0000
0100
1000
0100
,
0000
0001
0000
0100
,
0000
1000
0010
1000
,
0000
0001
0000
0100
,
0000
0010
0100
0010
,
0000
1000
0000
0100
,
0000
0010
0001
0010
,
0000
0001
0000
0100
,
0000
0010
1000
0010
,
0000
0001
0000
0100
,
0000
0001
1000
0001
,
0000
0002
0000
0103
,
0000
1000
0000
0100
,
0000
0020
0030
0200
,
0300
2000
3000
0002
,
0003
2000
0000
3001
,
0000
0100
0000
0010
,
0000
0002
0003
2000
,
3000
0002
0003
0200
,
0300
0020
0000
1030
,
0000
0001
0000
1000
,
0000
0200
0300
0020
,
0030
0002
0003
0200
,
0300
0020
0000
1030
,
0000
0001
0000
1000
,
0000
0002
0003
2000
,
3000
0002
0003
0010
,
0000
1000
0100
0010
,
0000
1000
0100
0010
,
0000
0001
0000
0100
,
0000
0001
0010
0100
,
1000
0100
0000
0010
,
0000
0100
0000
0010
,
0000
0001
1000
0001
,
1000
0010
0000
0100
,
0000
0001
0100
0001
,
0000
0001
0100
0001
,
0000
0010
0000
1000
,
0000
0100
0010
1000
,
0100
0001
0000
0100
,
0000
0010
0001
1000
,
0001
0100
0000
0010
,
0000
1000
0001
0010
,
0100
1000
0100
0001
,
0000
1000
0100
0001
,
0000
0010
0000
0001
,
0000
0100
0010
0001
,
0010
0100
0000
0010
,
0000
1000
0000
0001
,
0000
0100
1000
0100
,
1000
0100
0000
0001
,
0000
0010
0100
1000
,
0000
0010
0100
1000
,
0000
0001
0000
0100
,
0000
0010
0001
1000
,
0100
0010
0000
1000
,
0000
0001
0010
0100
,
1000
0020
0030
0200
,
0300
0002
0003
2000
,
3000
0010
0000
0010
,
0000
1000
0001
0001
,
0001
0100
0000
0010
,
0000
0001
0010
0001
,
0010
0002
0000
0000
,
0000
0003
0000
0000
;
